Ce site contient essentiellement des notes de travail. Le contenu est en constante évolution, et loin d'être achevé. (+ d'infos)
La plupart des documentations informatiques sont orientées Debian / Ubuntu.

Multimédia/Appareils/Toshiba Camileo S10

De Ordinoscope.net
Sauter à la navigation Sauter à la recherche
Toshiba Camileo S10

Introduction

Plus Moins
  • Excellents contraste et saturation
  • Angle de vue très réduit
  • Saccade légèrement lors d'un panoramique (y c. stabilisation désactivée)

Détails techniques

Caractéristiques

Résolutions
  • FH: 1440 x 1080p @ 30 fps
  • HD: 1280 x 720p @ 30 fps
  • *** (WVGA): 848 x 480 @ 60 fps
  • ** (VGA): 640 x 480 @ 30 fps
  • * (QVGA): 320 x 240 @ 30 fps
Container Quicktime (.MOV)
Codecs
  • Vidéo: AVC (H.264)
  • Audio: AAC 48 kHz, 2 channels, 128 kbps
Angle de l'objectif ~ 70°
Zoom Numérique: 4x

Infos de MediaInfo

General
Complete name                    : .../Toshiba Camileo S10 FHD.MOV
Format                           : MPEG-4
Format profile                   : QuickTime
Codec ID                         : qt  
File size                        : 21.9 MiB
Duration                         : 21s 755ms
Overall bit rate                 : 8 461 Kbps
Encoded date                     : UTC 2010-07-06 12:49:33
Tagged date                      : UTC 2010-07-06 12:49:33
AMBA                             : �� d

Video
ID                               : 1
Format                           : AVC
Format/Info                      : Advanced Video Codec
Format profile                   : Main@L4.0
Format settings, CABAC           : Yes
Format settings, ReFrames        : 4 frames
Codec ID                         : avc1
Codec ID/Info                    : Advanced Video Coding
Duration                         : 21s 755ms
Bit rate mode                    : Variable
Bit rate                         : 8 309 Kbps
Width                            : 1 440 pixels
Height                           : 1 080 pixels
Display aspect ratio             : 16:9
Original display aspect ratio    : 4:3
Frame rate mode                  : Constant
Frame rate                       : 29.970 fps
Resolution                       : 8 bits
Colorimetry                      : 4:2:0
Scan type                        : Progressive
Bits/(Pixel*Frame)               : 0.178
Stream size                      : 21.5 MiB (98%)
Title                            : Ambarella AVC / Ambarella AVC
Language                         : English
Encoded date                     : UTC 2010-07-06 12:49:33
Tagged date                      : UTC 2010-07-06 12:49:33

Audio
ID                               : 2
Format                           : AAC
Format/Info                      : Advanced Audio Codec
Format version                   : Version 4
Format profile                   : LC
Format settings, SBR             : No
Codec ID                         : 40
Duration                         : 21s 653ms
Bit rate mode                    : Constant
Bit rate                         : 128 Kbps
Channel(s)                       : 2 channels
Channel positions                : Front: L R
Sampling rate                    : 48.0 KHz
Stream size                      : 339 KiB (2%)
Title                            : Ambarella AAC / Ambarella AAC
Language                         : English
Encoded date                     : UTC 2010-07-06 12:49:33
Tagged date                      : UTC 2010-07-06 12:49:33

Compatibilité

Tests

Toshiba Camileo S10 - test1.jpg Test angle minimum
Toshiba Camileo S10 - test2.jpg Test angle minimum, avec réducteur 0.67x (RC-TECH]