Ce site contient essentiellement des notes de travail. Le contenu est en constante évolution, et loin d'être achevé. (+ d'infos)
La plupart des documentations informatiques sont orientées Debian / Ubuntu.

Multimédia/Appareils/Toshiba Camileo H30

De Ordinoscope.net
Sauter à la navigation Sauter à la recherche
Toshiba Camileo H30

Introduction

Plus Moins
  • Excellent contraste
  • Fonction d'accélérés (timelapse)
  • La caméra s'éteint lors de la charge
  • Phénomène de soleil noir (une source de lumière trop puissante passe au noir)
  • Manque un blocage de l'exposition (parfois désagréable lors d'accélérés)
  • Manque un blocage de focus (image parfois floue à l'infini)
  • Mode ralenti trop petit (320 x 240), de très mauvaise qualité
  • La détection de mouvement prend beaucoup de temps à démarrer

Extras:

  • mode accéléré (1 image / 1s, 3s, 5s)
  • mode ralenti (limité à 320 x 240)
  • détection de mouvement

Détails techniques

Caractéristiques

Résolutions
  • FHD: 1920 x 1080p @ 30 fps
  • HD: 1280 x 720p @ 30 fps
  • WVGA 60: 848 x 480 @ 60 fps
  • VGA: 640 x 480 @ 30 fps
Container RIFF (.avi)
Codecs
  • Vidéo: AVC (H.264)
  • Audio: ADPCM 48 kHz, 2 channels, 384 kbps
Angle de l'objectif ~ 110°
Zoom
  • optique: 5x
  • numérique: 4x

Infos de MediaInfo

General
Complete name                    : .../Toshiba Camileo H30 FHD.avi
Format                           : AVI
Format/Info                      : Audio Video Interleave
File size                        : 20.0 MiB
Duration                         : 19s 586ms
Overall bit rate                 : 8 552 Kbps
Recorded date                    : 2010-07-06
Writing library                  : AMBA
ICRT                             : 12:37:48

Video
ID                               : 0
Format                           : AVC
Format/Info                      : Advanced Video Codec
Format profile                   : Main@L4.0
Format settings, CABAC           : Yes
Format settings, ReFrames        : 4 frames
Codec ID                         : H264
Duration                         : 19s 586ms
Bit rate                         : 8 151 Kbps
Width                            : 1 920 pixels
Height                           : 1 080 pixels
Display aspect ratio             : 16:9
Frame rate                       : 29.970 fps
Resolution                       : 8 bits
Colorimetry                      : 4:2:0
Scan type                        : Progressive
Bits/(Pixel*Frame)               : 0.131
Stream size                      : 19.0 MiB (95%)

Audio
Format                           : ADPCM
Codec ID                         : 11
Codec ID/Hint                    : Intel
Duration                         : 19s 234ms
Bit rate mode                    : Constant
Bit rate                         : 384 Kbps
Channel(s)                       : 2 channels
Sampling rate                    : 48.0 KHz
Resolution                       : 4 bits
Stream size                      : 920 KiB (4%)
Interleave, duration             : 43 ms (1.28 video frame)

Tests

Toshiba Camileo H30 - test1.jpg