Ce site contient essentiellement des notes de travail. Le contenu est en constante évolution, et loin d'être achevé. (+ d'infos)
La plupart des documentations informatiques sont orientées Debian / Ubuntu.

Multimédia/Appareils/Sony MHS-PM1

De Ordinoscope.net
Sauter à la navigation Sauter à la recherche
Sony MHS-PM1
(Webbie / Snap HD)

Introduction

Connue sous le nom de "Webbie HD" (US) ou "Snap HD" (Europe)

Plus Moins
  • Tête rotative
  • Manque de contraste et de saturation
  • Enregistrement limité à 25 minutes
  • Angle de vue très réduit

Détails techniques

Caractéristiques

Résolutions
  • 1440 x 1080p @ 30 fps
  • 1280 x 720p @ 30 fps
  • 640 x 480 @ 30 fps
Container MPEG-4 (.mp4)
Codecs
  • Vidéo: AVC (H.264)
  • Audio: AAC 48 kHz, 2 channels, 128 kbps
Angle de l'objectif ~ 60°
Zoom Numérique: 4x

Infos de MediaInfo

General
Complete name                    : .../Sony MHS-PM1 FHD.MP4
Format                           : MPEG-4
Format profile                   : Sony PSP
Codec ID                         : MSNV
File size                        : 16.2 MiB
Duration                         : 22s 22ms
Overall bit rate                 : 6 177 Kbps
Encoded date                     : UTC 2010-07-06 16:39:34
Tagged date                      : UTC 2010-07-06 16:39:56

Video
ID                               : 1
Format                           : AVC
Format/Info                      : Advanced Video Codec
Format profile                   : Main@L4.0
Format settings, CABAC           : Yes
Format settings, ReFrames        : 2 frames
Format_Settings_FrameMode        : Frame tripling
Codec ID                         : avc1
Codec ID/Info                    : Advanced Video Coding
Duration                         : 22s 22ms
Bit rate mode                    : Variable
Bit rate                         : 5 937 Kbps
Width                            : 1 440 pixels
Height                           : 1 080 pixels
Display aspect ratio             : 16:9
Frame rate mode                  : Constant
Frame rate                       : 29.970 fps
Original frame rate              : 9.990 fps
Resolution                       : 8 bits
Colorimetry                      : 4:2:0
Scan type                        : Progressive
Bits/(Pixel*Frame)               : 0.127
Stream size                      : 15.6 MiB (96%)
Encoded date                     : UTC 2010-07-06 16:39:34
Tagged date                      : UTC 2010-07-06 16:39:56

Audio
ID                               : 2
Format                           : AAC
Format/Info                      : Advanced Audio Codec
Format version                   : Version 4
Format profile                   : LC
Format settings, SBR             : No
Codec ID                         : 40
Duration                         : 21s 269ms
Bit rate mode                    : Constant
Bit rate                         : 128 Kbps
Channel(s)                       : 2 channels
Channel positions                : Front: L R
Sampling rate                    : 48.0 KHz
Stream size                      : 332 KiB (2%)
Encoded date                     : UTC 2010-07-06 16:39:34
Tagged date                      : UTC 2010-07-06 16:39:56

Compatibilité

Programme Compatibilité Détails
Adobe Premiere
Avidemux
FFmpeg
Handbrake
KdenLive
Mplayer / Mencoder YesV.png
OpenShot
Pitivi YesV.png
Totem
Videolan (VLC) YesV.png
Windows Media Player


Légende:

YesV.png Support natif
InfoI.png Support via un codec ou une astuce
NoX.png Aucun support

Tests

Sony MHS-PM1 - test1.jpg

Références