Ce site contient essentiellement des notes de travail. Le contenu est en constante évolution, et loin d'être achevé. (+ d'infos)
La plupart des documentations informatiques sont orientées Debian / Ubuntu.

Multimédia/Appareils/HobbyKing HD Wing Camera

De Ordinoscope.net
Sauter à la navigation Sauter à la recherche

Introduction

HobbyKing HD Wing Camera

Petite caméra en 720P, particulièrement bien adaptée pour des modèles réduits.

Ces petites caméras bon marché ont toutes le défaut de sauter de luminosité assez brusquement, et celle-ci n'y échappe pas. Mais encore plus désagréable, l'encodeur semble trop lent et duplique régulièrement des images (séries de 2~3). Le résultat n'est pas fluide, ressemblant à du 10~15 images/s instable.

Qualités Défauts
  • Petite et légère
  • Bien adaptée aux modèles réduits
  • Image correcte, sans plus
  • Mauvaise fluidité
  • Changements de luminosité violents
  • Tend fortement vers le violet

Caractéristiques

Capteur CMOS 5MP
Résolution / FPS
  • Vidéo: 1280 x 720p @ 30 fps
  • Photo: 2560 x 1920
Container AVI
Codecs
  • Video: MJPEG
  • Audio: 1 canal PCM / 8kHz / 16 bits @ 128kbps
Angle de l'objectif ~110°
Zoom N/A
Poids 29g
Connectique
  • Carte mini-SD (max 32GB)
  • jack / 2x Cinch (vidéo composite / audio)
  • mini-USB

Infos de MediaInfo

Complete name                    : PICT0001.AVI
Format                           : AVI
Format/Info                      : Audio Video Interleave
File size                        : 1.21 GiB
Duration                         : 11mn 9s
Overall bit rate                 : 15.5 Mbps

Video
ID                               : 0
Format                           : JPEG
Codec ID                         : MJPG
Duration                         : 11mn 9s
Bit rate                         : 22.0 Mbps
Width                            : 1 280 pixels
Height                           : 720 pixels
Display aspect ratio             : 16:9
Frame rate                       : 30.000 fps
Color space                      : YUV
Chroma subsampling               : 4:4:4
Bit depth                        : 8 bits
Compression mode                 : Lossy
Bits/(Pixel*Frame)               : 0.797
Stream size                      : 1.72 GiB

Audio
ID                               : 1
Format                           : PCM
Format settings, Endianness      : Little
Format settings, Sign            : Signed
Codec ID                         : 1
Codec ID/Hint                    : Microsoft
Duration                         : 11mn 9s
Bit rate mode                    : Constant
Bit rate                         : 128 Kbps
Channel(s)                       : 1 channel
Sampling rate                    : 8 000 Hz
Bit depth                        : 16 bits
Stream size                      : 10.2 MiB (1%)
Interleave, duration             : 511 ms (15.34 video frames)

Utilisation

HD Wing Camera-buttons.jpg

Mode caméra
Allumer / Eteindre Appuyer sur le bouton PWR pendant env. 2s
Enregistrer / Arrêter Appuyer brièvement sur le bouton du centre (la LED se met à clignoter / reste allumée)
Mode TV (câble branché)
Menu Appuyer sur le bouton EXEC un peu plus d'une seconde

La caméra s'éteint automatiquement lorsque

  • la carte SD est insérée
  • la carte SD est retirée
  • le câble vidéo est retiré

Tests

HK%252520HD%252520Wing%252520Camera%252520-%252520test%252520photo.JPG

Références