Ce site contient essentiellement des notes de travail. Le contenu est en constante évolution, et loin d'être achevé. (+ d'infos)
La plupart des documentations informatiques sont orientées Debian / Ubuntu.

Multimédia/Appareils/Carkey 909

De Ordinoscope.net
Sauter à la navigation Sauter à la recherche

Introduction

Carkey 909

Petite caméra de type pinhole, sous forme de porte-clés. Il en existe une multitude de versions (808, clones), dont la qualité et le prix varie selon le constructeur (toutes se ressemblent). La plupart se trouvent sur eBay.


Qualités Défauts
  • petit
  • léger (18g)
  • image acceptable et fluide
  • qualité de construction déplorable
  • impossible de retirer la date de l'image
  • s'arrête aléatoirement

Caractéristiques

Capteur CMOS
Résolution / FPS 720 x 480 @ 30 fps / NTSC
Container RIFF (AVI)
Codecs
  • Video: MJPEG @ 10 Mbps
  • Audio: PCM @ 350 kbps (22.05 kHz, 16-bit, 1 channel)
Angle de l'objectif ~70°
Zoom N/A
Poids 18g
Connectique
  • carte mini-SD
  • mini-USB

Infos de MediaInfo

General
Complete name                    : MEDI0001.AVI
Format                           : AVI
Format/Info                      : Audio Video Interleave
File size                        : 270 MiB
Duration                         : 3mn 25s
Overall bit rate                 : 11.0 Mbps

Video
ID                               : 0
Format                           : JPEG
Codec ID                         : MJPG
Duration                         : 3mn 25s
Bit rate                         : 10.6 Mbps
Width                            : 720 pixels
Height                           : 480 pixels
Display aspect ratio             : 3:2
Frame rate                       : 30.000 fps
Standard                         : NTSC
Color space                      : YUV
Compression mode                 : Lossy
Bits/(Pixel*Frame)               : 1.025
Stream size                      : 261 MiB (97%)

Audio
ID                               : 1
Format                           : PCM
Format settings, Endianness      : Little
Format settings, Sign            : Signed
Codec ID                         : 1
Codec ID/Hint                    : Microsoft
Duration                         : 3mn 25s
Bit rate mode                    : Constant
Bit rate                         : 352.8 Kbps
Channel(s)                       : 1 channel
Sampling rate                    : 22.05 KHz
Bit depth                        : 16 bits
Stream size                      : 8.65 MiB (3%)
Interleave, duration             : 46 ms (1.39 video frame)

Tests

Carkey%252520909%252520-%252520test%252520photo.JPG

Références