Ce site contient essentiellement des notes de travail. Le contenu est en constante évolution, et loin d'être achevé. (+ d'infos)
La plupart des documentations informatiques sont orientées Debian / Ubuntu.

Multimédia/Appareils/Canon HF100

De Ordinoscope.net
Sauter à la navigation Sauter à la recherche
Canon HF100

Détails techniques

Formats supportés

Résolutions
  • 1920 x 1080, 17 Mbps (FXP)
  • 1440 x 1080, 12 Mbps (XP+)
  • 1440 x 1080, 7 Mbps (SP)
  • 1440 x 1080, 5 Mbps (LP)
FPS
  • 50i (50i)
  • 25p (FP25)
Container BDAV (.M2TS)
Codecs
  • Vidéo: AVC (H.264)
  • Audio: AC3 48 kHz, 2 channels, 256 kbps
Angle de l'objectif ~ 100°
Zoom
  • Optique: 12x
  • Numérique: 40x, 200x

Infos de MediaInfo

FHD 50i FP25
General
ID                               : 0
Complete name                    : .../Canon HF100 FHD 50i.MTS
Format                           : BDAV
Format/Info                      : Blu-ray Video
File size                        : 40.6 MiB
Duration                         : 21s 60ms
Overall bit rate                 : 16.2 Mbps
Maximum Overall bit rate         : 18.0 Mbps

Video
ID                               : 4113 (0x1011)
Menu ID                          : 1 (0x1)
Format                           : AVC
Format/Info                      : Advanced Video Codec
Format profile                   : High@L4.0
Format settings, CABAC           : Yes
Format settings, ReFrames        : 2 frames
Duration                         : 20s 960ms
Bit rate                         : 15.3 Mbps
Width                            : 1 920 pixels
Height                           : 1 080 pixels
Display aspect ratio             : 16:9
Frame rate                       : 25.000 fps
Resolution                       : 8 bits
Colorimetry                      : 4:2:0
Scan type                        : Interlaced
Scan order                       : Top Field First
Bits/(Pixel*Frame)               : 0.295
Stream size                      : 38.2 MiB (94%)

Audio
ID                               : 4352 (0x1100)
Menu ID                          : 1 (0x1)
Format                           : AC-3
Format/Info                      : Audio Coding 3
Duration                         : 21s 88ms
Bit rate mode                    : Constant
Bit rate                         : 256 Kbps
Channel(s)                       : 2 channels
Channel positions                : Front: L R
Sampling rate                    : 48.0 KHz
Video delay                      : -80ms
Stream size                      : 659 KiB (2%)
General
ID                               : 0
Complete name                    : .../Canon HF100 FHD FP25.MTS
Format                           : BDAV
Format/Info                      : Blu-ray Video
File size                        : 39.9 MiB
Duration                         : 21s 150ms
Overall bit rate                 : 15.8 Mbps
Maximum Overall bit rate         : 18.0 Mbps

Video
ID                               : 4113 (0x1011)
Menu ID                          : 1 (0x1)
Format                           : AVC
Format/Info                      : Advanced Video Codec
Format profile                   : High@L4.0
Format settings, CABAC           : Yes
Format settings, ReFrames        : 2 frames
Duration                         : 20s 960ms
Bit rate                         : 14.9 Mbps
Width                            : 1 920 pixels
Height                           : 1 080 pixels
Display aspect ratio             : 16:9
Frame rate                       : 25.000 fps
Resolution                       : 8 bits
Colorimetry                      : 4:2:0
Scan type                        : Interlaced
Scan order                       : Top Field First
Bits/(Pixel*Frame)               : 0.288
Stream size                      : 37.3 MiB (94%)

Audio
ID                               : 4352 (0x1100)
Menu ID                          : 1 (0x1)
Format                           : AC-3
Format/Info                      : Audio Coding 3
Duration                         : 21s 88ms
Bit rate mode                    : Constant
Bit rate                         : 256 Kbps
Channel(s)                       : 2 channels
Channel positions                : Front: L R
Sampling rate                    : 48.0 KHz
Video delay                      : -80ms
Stream size                      : 659 KiB (2%)

Compatibilité

Programme Compatibilité Détails
Adobe Premiere YesV.png Depuis la version CS4
Avidemux InfoI.png FP25 / NoX.png 50i FP25: forcer la source en 50 fps / 50i: images mélangées et saccadées
FFmpeg NoX.png les images saccadent et tournent en boucle
Handbrake YesV.png
KdenLive
Mplayer / Mencoder NoX.png
OpenShot
Pitivi
Totem YesV.png FP25 / NoX.png 50i mauvaise fluidité et perte d'images
Videolan (VLC) YesV.png depuis la version 0.9.8
Windows Media Player InfoI.png


Légende:

YesV.png Support natif
InfoI.png Support via un codec ou une astuce
NoX.png Aucun support

Tests

Canon HF100 - test1.jpg